<?xml version="1.0" standalone="no"?>
<!DOCTYPE svg PUBLIC "-//W3C//DTD SVG 1.1//EN" "http://www.w3.org/Graphics/SVG/1.1/DTD/svg11.dtd" >
<svg xmlns="http://www.w3.org/2000/svg" xmlns:xlink="http://www.w3.org/1999/xlink" version="1.1">
<metadata></metadata>
<defs>
<font id="neuzeit_groteskbold" horiz-adv-x="1024" >
<font-face units-per-em="2048" ascent="1366" descent="-682" />
<missing-glyph horiz-adv-x="614" />
<glyph unicode="&#xfb01;" horiz-adv-x="1091" d="M43 729v219h104v53q0 192 92 279t293 86v-240q-69 -9 -96.5 -37t-27.5 -88v-53h124v-219h-124v-729h-261v729h-104zM688 1219q0 63 41.5 104t104.5 41t103 -41t40 -106q0 -60 -41 -101t-102 -41q-63 0 -104.5 41t-41.5 103zM702 0v948h261v-948h-261z" />
<glyph unicode="&#xfb02;" horiz-adv-x="1091" d="M43 729v219h104v53q0 192 92 279t293 86v-240q-69 -9 -96.5 -37t-27.5 -88v-53h124v-219h-124v-729h-261v729h-104zM702 0v1366h261v-1366h-261z" />
<glyph unicode="&#xfb03;" horiz-adv-x="1689" d="M43 729v219h104v53q0 192 92 279t293 86v-240q-69 -9 -96.5 -37t-27.5 -88v-53h124v-219h-124v-729h-261v729h-104zM621 729v219h106v53q0 192 91.5 279.5t291.5 85.5v-240q-68 -9 -95.5 -37t-27.5 -88v-53h123v-219h-123v-729h-260v729h-106zM1286 1219q0 63 41.5 104 t104.5 41t103 -41t40 -106q0 -60 -41 -101t-102 -41q-63 0 -104.5 41t-41.5 103zM1300 0v948h261v-948h-261z" />
<glyph unicode="&#xfb04;" horiz-adv-x="1689" d="M43 729v219h104v53q0 192 92 279t293 86v-240q-69 -9 -96.5 -37t-27.5 -88v-53h124v-219h-124v-729h-261v729h-104zM621 729v219h106v53q0 192 91.5 279.5t291.5 85.5v-240q-68 -9 -95.5 -37t-27.5 -88v-53h123v-219h-123v-729h-260v729h-106zM1300 0v1366h261v-1366 h-261z" />
<glyph horiz-adv-x="0" />
<glyph horiz-adv-x="682" />
<glyph unicode=" "  horiz-adv-x="614" />
<glyph unicode="&#x09;" horiz-adv-x="614" />
<glyph unicode="&#xa0;" horiz-adv-x="614" />
<glyph unicode="!" horiz-adv-x="587" d="M143 125q0 66 43.5 108.5t110.5 42.5q65 0 107 -43t42 -110q0 -64 -43 -107t-108 -43q-66 0 -109 43t-43 109zM166 426v940h256v-940h-256z" />
<glyph unicode="&#x22;" horiz-adv-x="843" d="M66 1366h305l-52 -549h-202zM473 1366h305l-51 -549h-203z" />
<glyph unicode="#" d="M61 465v137h218l28 180h-194v140h213l57 383h135l-53 -383h180l55 383h140l-56 -383h179v-140h-199l-25 -180h176v-137h-196l-60 -410h-141l60 410h-181l-59 -410h-139l59 410h-197zM418 600h180l29 184h-185z" />
<glyph unicode="$" d="M78 973q0 161 104 267t273 118v145h96v-145q178 -26 272.5 -117t100.5 -242h-232q-2 57 -38.5 94.5t-102.5 47.5v-348q144 -50 227 -101q79 -47 123.5 -126t44.5 -173q0 -104 -53.5 -196.5t-142.5 -141.5q-40 -23 -83 -34.5t-116 -20.5v-180h-96v180q-165 9 -271.5 117 t-103.5 264h233q-3 -65 34.5 -109t107.5 -57v358q-206 71 -291.5 161.5t-85.5 238.5zM311 987q0 -74 58 -119q27 -19 86 -43v316q-68 -11 -106 -51t-38 -103zM551 215q70 9 109.5 52.5t39.5 111.5q0 59 -34 95.5t-115 62.5v-322z" />
<glyph unicode="%" horiz-adv-x="1390" d="M82 934v176q0 145 57 205q68 71 193 71q112 0 182 -61q40 -37 56 -82t16 -123v-217q0 -123 -64.5 -188.5t-185.5 -65.5q-127 0 -195 68q-33 33 -46 81t-13 136zM203 29l901 1362l82 -52l-901 -1364zM244 924q0 -48 2 -63.5t10 -31.5q22 -36 80 -36q52 0 72 29t20 106v186 q0 70 -20 98.5t-70 28.5q-55 0 -74.5 -27t-19.5 -104v-186zM803 264v176q0 145 57 205q69 72 193 72q111 0 182 -62q40 -35 56 -80.5t16 -123.5v-218q0 -123 -64 -188t-186 -65q-128 0 -195 67q-32 32 -45.5 81t-13.5 136zM965 254q0 -70 12 -94q23 -37 80 -37q52 0 72 29 t20 106v186q0 70 -20 98.5t-70 28.5q-55 0 -74.5 -27t-19.5 -104v-186z" />
<glyph unicode="&#x26;" horiz-adv-x="1306" d="M76 358q0 129 64 219t233 199q-65 95 -89 153.5t-24 125.5q0 126 96.5 208.5t245.5 82.5q145 0 239.5 -81.5t94.5 -207.5q0 -112 -80 -211q-28 -32 -58.5 -58t-86.5 -63l188 -252q75 68 106 99t95 104l174 -154q-78 -86 -113 -120.5t-117 -112.5l230 -289h-301l-105 133 q-109 -88 -202.5 -128t-188.5 -40q-173 0 -287 111.5t-114 281.5zM334 377q0 -72 51.5 -124t122.5 -52q105 0 209 116l-213 275q-95 -61 -132.5 -108.5t-37.5 -106.5zM506 1051q0 -35 15.5 -67t56.5 -85q66 41 93 76t27 78q0 40 -26 67t-66 27q-41 0 -70.5 -28t-29.5 -68z " />
<glyph unicode="'" horiz-adv-x="446" d="M66 1366h315l-53 -549h-211z" />
<glyph unicode="(" horiz-adv-x="669" d="M76 473q0 317 141 633q45 102 89.5 170.5t119.5 153.5l166 -156q-283 -374 -283 -811q0 -416 283 -780l-178 -152q-172 229 -255 460t-83 482z" />
<glyph unicode=")" horiz-adv-x="669" d="M78 -313q282 370 282 811q0 418 -282 782l178 150q338 -447 338 -943q0 -315 -141 -632q-45 -102 -89.5 -170.5t-119.5 -153.5z" />
<glyph unicode="*" horiz-adv-x="847" d="M113 1087l51 138l184 -56v197h146v-197l192 70l51 -137l-207 -76l138 -162l-113 -88l-133 164l-115 -164l-125 88l117 162z" />
<glyph unicode="+" d="M27 659v136h415v405h140v-405h417v-136h-417v-405h-140v405h-415z" />
<glyph unicode="," horiz-adv-x="534" d="M66 -229l118 508l240 -60l-182 -489z" />
<glyph unicode="-" horiz-adv-x="454" d="M0 385v229h455v-229h-455z" />
<glyph unicode="." horiz-adv-x="534" d="M117 125q0 66 43 108.5t110 42.5q65 0 107.5 -43t42.5 -110q0 -64 -43.5 -107t-108.5 -43q-66 0 -108.5 43t-42.5 109z" />
<glyph unicode="/" horiz-adv-x="804" d="M-109 -424l680 1790h181l-680 -1790h-181z" />
<glyph unicode="0" d="M84 475v436q0 132 21.5 213.5t70.5 135.5q114 126 330 126q191 0 309 -106q66 -59 94.5 -136t28.5 -200v-530q0 -119 -26.5 -197t-86.5 -135q-115 -109 -311 -109q-213 0 -328 115q-57 57 -79.5 142t-22.5 245zM348 446q0 -82 5 -111t24 -54q20 -30 57.5 -48t79.5 -18 q43 0 80 19t57 51q29 51 29 164v475q0 69 -9 104.5t-32 61.5q-45 51 -125 51q-97 0 -137 -68q-29 -51 -29 -162v-465z" />
<glyph unicode="1" d="M233 885v243l512 267v-1395h-264v1018z" />
<glyph unicode="2" d="M57 0l478 729q78 121 101 170t23 98q0 66 -45.5 109t-115.5 43q-55 0 -96 -25.5t-58 -70.5q-18 -46 -20 -131h-242q-1 217 114 340.5t318 123.5q180 0 295 -102t115 -260q0 -93 -38.5 -188.5t-129.5 -229.5l-256 -375h387v-231h-830z" />
<glyph unicode="3" d="M51 371l236 8q12 -79 62.5 -124.5t125.5 -45.5q88 0 148.5 60t60.5 149q0 91 -59.5 150t-151.5 59q-70 0 -125 -35l-147 125l311 416h-393v225h831l-379 -510q166 -13 265.5 -126t99.5 -286q0 -200 -129.5 -331.5t-325.5 -131.5q-114 0 -208.5 47.5t-151.5 133.5 q-31 46 -46 93t-24 124z" />
<glyph unicode="4" d="M72 281v219l479 870h274v-864h125v-225h-125v-281h-252v281h-501zM287 506h286v508z" />
<glyph unicode="5" d="M72 285l229 86q57 -150 191 -150q86 0 143 60t57 149t-58.5 150t-144.5 61q-54 0 -95 -21.5t-79 -70.5h-172v809h697v-238h-457v-293q86 37 170 37q169 0 282 -122.5t113 -305.5q0 -203 -126 -333t-322 -130q-190 0 -316 123q-36 38 -59 77t-53 112z" />
<glyph unicode="6" d="M68 412q0 94 34 187.5t115 221.5l340 537h299l-350 -539q40 12 72 12q158 0 268 -117.5t110 -285.5q0 -189 -132.5 -322t-321.5 -133q-185 0 -309.5 126t-124.5 313zM315 416q0 -85 56 -141t139 -56t141 57.5t58 139.5q0 85 -55.5 141.5t-137.5 56.5q-85 0 -143 -57.5 t-58 -140.5z" />
<glyph unicode="7" d="M141 0l443 1120h-441v238h807l-536 -1358h-273z" />
<glyph unicode="8" d="M70 381q0 249 202 334q-78 38 -119.5 111t-41.5 171q0 170 114.5 279.5t294.5 109.5q175 0 288.5 -107t113.5 -273q0 -111 -58 -199q-23 -34 -44 -52t-62 -40q196 -85 196 -320q0 -186 -124.5 -304t-321.5 -118q-195 0 -316.5 113t-121.5 295zM322 399q0 -82 53.5 -135 t136.5 -53q78 0 133 55t55 133t-55.5 134.5t-130.5 56.5q-82 0 -137 -54.5t-55 -136.5zM348 997q0 -72 49 -122t119 -50q69 0 121.5 50.5t52.5 117.5t-51.5 117.5t-120.5 50.5q-73 0 -121.5 -46.5t-48.5 -117.5z" />
<glyph unicode="9" d="M68 936q0 192 130 321t322 129q189 0 313.5 -125.5t124.5 -316.5q0 -93 -34.5 -188.5t-112.5 -220.5l-336 -535h-295l344 537q-44 -9 -61 -9q-169 0 -282 117.5t-113 290.5zM319 948q0 -83 55.5 -139.5t137.5 -56.5q84 0 140.5 55.5t56.5 138.5q0 81 -56.5 139t-134.5 58 q-83 0 -141 -56.5t-58 -138.5z" />
<glyph unicode=":" horiz-adv-x="534" d="M117 125q0 66 43 108.5t110 42.5q65 0 107.5 -43t42.5 -110q0 -64 -43.5 -107t-108.5 -43q-66 0 -108.5 43t-42.5 109zM117 801q0 66 43 108.5t110 42.5q65 0 107.5 -43t42.5 -110q0 -64 -43.5 -107t-108.5 -43q-66 0 -108.5 43t-42.5 109z" />
<glyph unicode=";" horiz-adv-x="534" d="M66 -229l118 508l240 -60l-182 -489zM141 768q0 66 43.5 109t110.5 43q65 0 107 -43.5t42 -110.5q0 -64 -43 -107t-108 -43q-66 0 -109 43t-43 109z" />
<glyph unicode="&#x3c;" d="M68 571v238l886 459v-283l-587 -297l587 -297v-278z" />
<glyph unicode="=" d="M25 510v131h972v-131h-972zM25 813v131h972v-131h-972z" />
<glyph unicode="&#x3e;" d="M70 113v280l587 297l-587 297v281l886 -459v-238z" />
<glyph unicode="?" horiz-adv-x="915" d="M51 997q3 184 106 288t283 104q175 0 286.5 -103t111.5 -266q0 -99 -43 -174.5t-140 -147.5q-78 -57 -97 -86.5t-19 -95.5v-24q2 -8 2 -48h-262q-3 50 -3 74q0 86 14 134t51 90.5t122 109.5q62 47 86 83.5t24 82.5q0 59 -39 97t-100 38q-66 0 -102.5 -41t-36.5 -115h-244 zM260 125q0 66 43.5 108.5t110.5 42.5q65 0 107 -43t42 -110q0 -64 -43 -107t-108 -43q-66 0 -109 43t-43 109z" />
<glyph unicode="@" horiz-adv-x="1579" d="M127 678q0 164 78 313t217 252q178 133 416 133q165 0 307.5 -77t226.5 -208.5t84 -283.5q0 -117 -49 -225t-135 -185q-68 -58 -147.5 -91.5t-149.5 -33.5q-61 0 -96.5 28t-40.5 81q-77 -62 -126.5 -84.5t-107.5 -22.5q-98 0 -159.5 70t-61.5 184q0 90 32 188t89 181 q65 94 149.5 144.5t177.5 50.5q57 0 95.5 -18.5t85.5 -69.5l20 53h176l-213 -568q-24 -67 -24 -98q0 -39 51 -39q54 0 119 43q95 60 154 171t59 231q0 130 -71 241t-192 175.5t-262 64.5q-163 0 -301.5 -81.5t-218.5 -221t-80 -303.5q0 -119 46.5 -227.5t124.5 -187 t186 -125t225 -46.5q109 0 212.5 37t182.5 106q55 45 133 152h101q-55 -110 -109.5 -174t-136.5 -113q-174 -106 -389 -106q-137 0 -262 55t-216.5 148t-145.5 220.5t-54 266.5zM547 451q0 -44 22 -68.5t62 -24.5q55 0 118 65.5t101 162.5l102 262q9 21 9 51q0 51 -23.5 79 t-65.5 28q-55 0 -116 -64q-83 -89 -146 -236.5t-63 -254.5z" />
<glyph unicode="A" horiz-adv-x="1294" d="M4 0l471 1366h350l467 -1366h-307l-78 236h-524l-82 -236h-297zM455 465h379l-189 565z" />
<glyph unicode="B" horiz-adv-x="1171" d="M143 0v1366h441q242 0 348 -78q63 -47 97 -122.5t34 -166.5q0 -141 -86 -233q-30 -30 -59 -46.5t-84 -35.5q61 -13 95 -29t66 -45q99 -90 99 -245q0 -95 -38 -175t-104 -124q-54 -36 -123.5 -51t-181.5 -15h-504zM424 207h137q73 0 112.5 8t69.5 29q68 47 68 145 q0 109 -78 156q-32 19 -72 26t-116 7h-121v-371zM424 786h113q124 0 183.5 46t59.5 141q0 52 -22.5 93t-59.5 60q-58 27 -176 27h-98v-367z" />
<glyph unicode="C" horiz-adv-x="1300" d="M76 680q0 205 86.5 368t241.5 254t350 91q159 0 277 -49.5t239 -167.5l-183 -185q-84 75 -158.5 108.5t-160.5 33.5q-180 0 -294 -125t-114 -322t119 -325t303 -128q182 0 305 140l170 -193q-119 -110 -237 -158.5t-270 -48.5q-306 0 -490 205q-88 96 -136 228.5 t-48 273.5z" />
<glyph unicode="D" horiz-adv-x="1312" d="M143 0v1366h387q166 0 283.5 -36.5t208.5 -115.5q215 -190 215 -516q0 -165 -56.5 -305.5t-160.5 -234.5q-175 -158 -473 -158h-404zM424 231h53q113 0 187.5 22t134.5 73q74 63 113.5 157t39.5 207q0 204 -116 326.5t-310 122.5h-102v-908z" />
<glyph unicode="E" horiz-adv-x="948" d="M96 0v1366h760v-229h-479v-336h479v-230h-479v-342h479v-229h-760z" />
<glyph unicode="F" horiz-adv-x="956" d="M143 0v1366h760v-229h-479v-336h479v-230h-479v-571h-281z" />
<glyph unicode="G" horiz-adv-x="1540" d="M76 680q0 201 91 364.5t251 256t358 92.5q166 0 309.5 -68.5t243.5 -194.5l-211 -165q-75 89 -155 129.5t-181 40.5q-180 0 -301 -130.5t-121 -324.5q0 -191 124 -322t304 -131q88 0 170 37t136 101q53 60 84 172h-381v229h684v-74q0 -158 -48 -281t-151 -227 q-211 -211 -504 -211q-148 0 -278.5 54t-223.5 148t-146.5 225t-53.5 280z" />
<glyph unicode="H" horiz-adv-x="1366" d="M143 0v1366h281v-578h518v578h281v-1366h-281v559h-518v-559h-281z" />
<glyph unicode="I" horiz-adv-x="565" d="M143 0v1366h281v-1366h-281z" />
<glyph unicode="J" horiz-adv-x="786" d="M63 -20v247q29 -2 58 -2q125 0 188 51q43 36 59.5 95t16.5 182v584h-322v229h603v-881q0 -186 -54 -290.5t-180 -163.5q-62 -28 -144.5 -39.5t-224.5 -11.5z" />
<glyph unicode="K" horiz-adv-x="1153" d="M143 0v1366h281v-594l387 594h326l-443 -657l443 -709h-330l-383 608v-608h-281z" />
<glyph unicode="L" horiz-adv-x="923" d="M143 0v1366h281v-1135h457v-231h-738z" />
<glyph unicode="M" horiz-adv-x="1736" d="M143 0v1366h318l407 -829l410 829h317v-1366h-280v852l-447 -893l-444 893v-852h-281z" />
<glyph unicode="N" horiz-adv-x="1413" d="M143 0v1366h277l571 -852v852h281v-1366h-275l-573 864v-864h-281z" />
<glyph unicode="O" horiz-adv-x="1564" d="M76 676q0 200 94 364.5t258.5 258.5t364.5 94q150 0 284 -59.5t236 -170.5q174 -195 174 -487q0 -191 -93.5 -353t-254.5 -256t-351 -94q-147 0 -279 55t-227 148.5t-150.5 224t-55.5 275.5zM362 680q0 -191 121 -320t299 -129q177 0 298.5 128.5t121.5 314.5 q0 198 -118.5 328.5t-299.5 130.5q-182 0 -302 -129t-120 -324z" />
<glyph unicode="P" horiz-adv-x="1128" d="M143 0v1366h437q243 0 374 -113.5t131 -322.5q0 -214 -130.5 -337.5t-356.5 -123.5h-174v-469h-281zM424 700h121q122 0 189 56t67 159q0 101 -67.5 160.5t-182.5 59.5h-127v-435z" />
<glyph unicode="Q" horiz-adv-x="1566" d="M78 676q0 150 55 283t150 228t227 150.5t281 55.5q196 0 356 -91.5t251 -251.5t91 -356q0 -266 -158 -465l129 -139l-198 -168l-123 148q-166 -97 -359 -97q-143 0 -273 55.5t-224 149.5t-149.5 224.5t-55.5 273.5zM362 682q0 -189 119.5 -319t292.5 -130q100 0 168 46 l-92 108l197 168l98 -113q59 112 59 248q0 188 -121 315.5t-299 127.5q-181 0 -301.5 -128.5t-120.5 -322.5z" />
<glyph unicode="R" horiz-adv-x="1196" d="M143 0v1366h422q254 0 387 -110t133 -320q0 -161 -82.5 -266.5t-240.5 -145.5l377 -524h-340l-375 543v-543h-281zM424 707h127q120 0 185 56t65 159q0 98 -61 155.5t-165 57.5h-151v-428z" />
<glyph unicode="S" horiz-adv-x="1067" d="M61 399h273v-18q0 -69 53 -114.5t133 -45.5q76 0 128 42t52 104q0 66 -55 108q-25 19 -54 32t-112 44q-224 79 -314.5 175t-90.5 253q0 186 124.5 300t325.5 114q199 0 321.5 -110.5t139.5 -307.5h-283q-8 86 -51.5 128t-126.5 42q-75 0 -121.5 -40t-46.5 -104 q0 -82 84 -129q46 -25 160 -67q113 -41 177 -75t108 -77q108 -102 108 -264q0 -187 -129.5 -301.5t-341.5 -114.5q-215 1 -339 115q-122 113 -122 305v6z" />
<glyph unicode="T" horiz-adv-x="944" d="M6 1137v229h930v-229h-324v-1137h-280v1137h-326z" />
<glyph unicode="U" horiz-adv-x="1308" d="M121 575v791h280v-801q0 -96 14 -153t48 -97q31 -38 82 -61t108 -23q60 0 114 26t85 69q30 41 41.5 93t11.5 148v799h283v-791q0 -292 -135 -442q-69 -76 -172.5 -118t-223.5 -42q-125 0 -233 44.5t-180 125.5q-66 73 -94.5 173.5t-28.5 258.5z" />
<glyph unicode="V" horiz-adv-x="1150" d="M4 1366h289l276 -915l289 915h289l-430 -1366h-299z" />
<glyph unicode="W" horiz-adv-x="1755" d="M4 1366h297l219 -862l221 862h279l213 -877l227 877h293l-381 -1366h-282l-216 895l-215 -895h-282z" />
<glyph unicode="X" horiz-adv-x="1189" d="M8 0l430 721l-383 645h324l219 -391l225 391h320l-385 -645l424 -721h-320l-264 475l-266 -475h-324z" />
<glyph unicode="Y" horiz-adv-x="1140" d="M-23 1366h334l264 -473l261 473h327l-448 -764v-602h-281v602z" />
<glyph unicode="Z" horiz-adv-x="1128" d="M27 0l639 1137h-568v229h1006l-637 -1137h575v-229h-1015z" />
<glyph unicode="[" horiz-adv-x="669" d="M135 -424v1790h438v-154h-219v-1482h219v-154h-438z" />
<glyph unicode="\" horiz-adv-x="804" d="M53 1366h180l680 -1790h-182z" />
<glyph unicode="]" horiz-adv-x="669" d="M96 -270h219v1482h-219v154h439v-1790h-439v154z" />
<glyph unicode="^" d="M37 725l317 647h316l317 -647h-252l-223 457l-223 -457h-252z" />
<glyph unicode="_" d="M0 -121h1024v-170h-1024v170z" />
<glyph unicode="`" d="M201 1376h262l170 -284h-160z" />
<glyph unicode="a" horiz-adv-x="1243" d="M70 463q0 224 135 371t342 147q96 0 168 -36t141 -118v121h260v-948h-260v131q-66 -85 -146 -124.5t-184 -39.5q-199 0 -327.5 139.5t-128.5 356.5zM348 467q0 -124 72 -207.5t178 -83.5q109 0 185.5 88t76.5 211q0 126 -72.5 206.5t-187.5 80.5q-111 0 -181.5 -82.5 t-70.5 -212.5z" />
<glyph unicode="b" horiz-adv-x="1241" d="M129 0v1366h260v-532q68 78 139.5 112.5t167.5 34.5q209 0 343.5 -144t134.5 -368q0 -223 -129 -362.5t-336 -139.5q-107 0 -182 36.5t-138 119.5v-123h-260zM385 467q0 -128 71 -208.5t183 -80.5q114 0 186 80.5t72 208.5q0 126 -72.5 210.5t-179.5 84.5 q-109 0 -184.5 -86t-75.5 -209z" />
<glyph unicode="c" horiz-adv-x="958" d="M68 469q0 224 141 368t362 144q204 0 379 -158l-174 -157q-84 84 -194 84q-107 0 -178.5 -78t-71.5 -195q0 -122 73 -200t187 -78q51 0 92 18t92 62l158 -170q-158 -142 -365 -142q-217 0 -359 142.5t-142 359.5z" />
<glyph unicode="d" horiz-adv-x="1243" d="M70 465q0 243 151 385q140 131 322 131q96 0 170 -32.5t143 -104.5v522h260v-1366h-260v125q-62 -85 -135 -121.5t-182 -36.5q-211 0 -340 137.5t-129 360.5zM346 463q0 -123 73 -205t183 -82q107 0 180.5 83t73.5 206q0 129 -71.5 213t-180.5 84q-113 0 -185.5 -84.5 t-72.5 -214.5z" />
<glyph unicode="e" horiz-adv-x="1138" d="M68 475q0 223 139.5 364.5t359.5 141.5q227 0 370.5 -144.5t143.5 -373.5l-2 -51h-741q17 -98 84 -155.5t164 -57.5q72 0 130 33t89 90l239 -66q-71 -138 -190.5 -213.5t-269.5 -75.5q-226 0 -371 143.5t-145 364.5zM338 561h475q-17 94 -81.5 147.5t-160.5 53.5 q-94 0 -154 -52t-79 -149z" />
<glyph unicode="f" horiz-adv-x="585" d="M43 729v219h104v53q0 192 92 279q91 86 288 86h5v-240q-69 -9 -96.5 -37t-27.5 -88v-53h124v-219h-124v-729h-261v729h-104z" />
<glyph unicode="g" horiz-adv-x="1206" d="M39 467q0 231 130.5 372.5t344.5 141.5q99 0 172 -36t135 -114v117h256v-878q0 -146 -29.5 -238t-97.5 -158q-143 -143 -393 -143q-274 0 -465 188l162 164q122 -131 293 -131q130 0 202 73.5t72 207.5v96q-128 -162 -334 -162q-195 0 -321.5 141.5t-126.5 358.5z M315 479q0 -123 72 -201.5t184 -78.5q57 0 109.5 23.5t87.5 64.5q49 58 49 168q0 149 -69 221q-77 74 -179 74q-112 0 -183 -76t-71 -195z" />
<glyph unicode="h" horiz-adv-x="1083" d="M129 0v1366h260v-520q60 71 122 103t138 32q62 0 124.5 -24t103.5 -64q46 -43 65 -104t19 -164v-625h-261v588q0 80 -38.5 127t-102.5 47q-70 0 -117 -47q-30 -29 -41.5 -61.5t-11.5 -88.5v-565h-260z" />
<glyph unicode="i" horiz-adv-x="518" d="M115 1219q0 63 41 104t104 41t103 -41t40 -106q0 -60 -41 -101t-102 -41q-63 0 -104 41t-41 103zM129 0v948h260v-948h-260z" />
<glyph unicode="j" horiz-adv-x="518" d="M-49 -197h39q66 0 102.5 44t36.5 122v979h260v-979q0 -210 -90 -303q-94 -102 -279 -102q-40 0 -69 2v237zM115 1219q0 63 41 104t104 41t103 -41t40 -106q0 -60 -41 -101t-102 -41q-63 0 -104 41t-41 103z" />
<glyph unicode="k" horiz-adv-x="968" d="M129 0v1366h260v-782l264 364h301l-321 -454l321 -494h-301l-264 393v-393h-260z" />
<glyph unicode="l" horiz-adv-x="518" d="M129 0v1366h260v-1366h-260z" />
<glyph unicode="m" horiz-adv-x="1622" d="M129 0v948h260v-119q44 78 107 115t153 37q188 0 258 -158q47 82 116.5 120t170.5 38q147 0 229 -88q43 -47 59.5 -106t16.5 -166v-621h-260v571q0 191 -145 191q-72 0 -112 -50t-40 -141v-571h-260v563q0 199 -143 199q-150 0 -150 -199v-563h-260z" />
<glyph unicode="n" horiz-adv-x="1087" d="M129 0v948h260v-117q53 82 111 116t147 34q67 0 129 -23.5t105 -64.5q46 -46 65 -111.5t19 -181.5v-600h-260v588q0 71 -23 110q-19 29 -53 46.5t-72 17.5q-75 0 -121.5 -52t-46.5 -135v-575h-260z" />
<glyph unicode="o" horiz-adv-x="1163" d="M68 473q0 226 144 367t374 141q224 0 369 -146t145 -370q0 -209 -150 -353.5t-368 -144.5q-224 0 -369 142.5t-145 363.5zM330 473q0 -123 70 -198.5t184 -75.5q112 0 183 75.5t71 194.5q0 129 -67.5 204t-184.5 75q-116 0 -186 -75.5t-70 -199.5z" />
<glyph unicode="p" horiz-adv-x="1247" d="M129 -424v1372h260v-117q59 78 132.5 114t178.5 36q147 0 265 -78q215 -147 215 -432q0 -227 -129.5 -365.5t-343.5 -138.5q-201 0 -318 135v-526h-260zM389 463q0 -129 69 -208t183 -79t187 81.5t73 207.5q0 130 -71 213.5t-181 83.5q-115 0 -187.5 -83.5t-72.5 -215.5z " />
<glyph unicode="q" horiz-adv-x="1243" d="M68 467q0 227 134.5 370.5t348.5 143.5q101 0 172 -33t131 -108v108h260v-1372h-260v526q-63 -70 -140.5 -102.5t-181.5 -32.5q-207 0 -335.5 138.5t-128.5 361.5zM346 469q0 -126 71.5 -209.5t180.5 -83.5q110 0 184 83.5t74 207.5q0 129 -72 212t-182 83 q-112 0 -184 -82.5t-72 -210.5z" />
<glyph unicode="r" horiz-adv-x="681" d="M129 0v948h260v-139q20 53 37.5 79t46.5 48q64 45 154 45q16 0 30 -2v-266q-40 4 -55 4q-54 0 -100 -23t-74 -63q-23 -32 -31 -68.5t-8 -105.5v-457h-260z" />
<glyph unicode="s" horiz-adv-x="858" d="M53 279h250q9 -62 38.5 -90.5t86.5 -28.5q46 0 75 25t29 65q0 43 -36 69t-140 58q-154 46 -225.5 118.5t-71.5 184.5q0 135 101 218t266 83q163 0 256 -81t98 -226h-245v16q0 43 -34 70.5t-87 27.5q-47 0 -76 -24t-29 -62q0 -41 27 -61q21 -16 39 -23t123 -40 q160 -50 228.5 -119.5t68.5 -184.5q0 -138 -101.5 -222.5t-267.5 -84.5q-169 0 -267.5 82t-105.5 230z" />
<glyph unicode="t" horiz-adv-x="579" d="M33 733v219h108v254h260v-254h119v-219h-119v-454q0 -34 17 -48t57 -14h45v-217h-207q-92 0 -132 42t-40 138v553h-108z" />
<glyph unicode="u" horiz-adv-x="1052" d="M111 348v600h260v-583q0 -80 43.5 -129.5t113.5 -49.5q72 0 113 43.5t41 118.5v600h260v-600q0 -105 -24 -169t-82 -113q-119 -99 -308 -99q-203 0 -317 105q-100 90 -100 276z" />
<glyph unicode="v" horiz-adv-x="948" d="M-4 948h270l209 -565l211 565h266l-346 -948h-268z" />
<glyph unicode="w" horiz-adv-x="1490" d="M-4 948h264l191 -577l165 577h250l170 -577l193 577h264l-309 -948h-271l-165 582l-170 -582h-277z" />
<glyph unicode="x" horiz-adv-x="983" d="M-2 948h328l174 -252l168 252h317l-338 -477l332 -471h-315l-164 258l-174 -258h-308l330 471z" />
<glyph unicode="y" horiz-adv-x="960" d="M-4 948h276l193 -563l221 563h277l-535 -1380h-278l178 455z" />
<glyph unicode="z" horiz-adv-x="862" d="M31 0l399 729h-362v219h768l-396 -729h367v-219h-776z" />
<glyph unicode="{" d="M211 393v223q61 15 88 56.5t27 118.5v311q0 145 63 211q44 45 102.5 59t204.5 14q70 0 109 -2v-258q-125 2 -163 -29.5t-38 -135.5v-218q0 -99 -25 -151t-92 -94q66 -40 91.5 -94t25.5 -152v-223q0 -108 37.5 -140t163.5 -32v-244q-49 -2 -121 -2q-145 0 -204.5 17 t-100.5 71q-53 67 -53 211v297q0 86 -26 128.5t-89 57.5z" />
<glyph unicode="|" d="M371 -342v1708h284v-1708h-284z" />
<glyph unicode="}" d="M221 -129q125 0 162 31t37 135v219q0 99 25 151t92 93q-66 40 -91.5 94.5t-25.5 153.5v223q0 108 -36 139t-163 31v243q39 2 119 2q145 0 204.5 -17t100.5 -71q53 -67 53 -211v-294q0 -88 26.5 -130t90.5 -57v-225q-62 -15 -89.5 -55.5t-27.5 -118.5v-311 q0 -146 -65 -211q-43 -45 -102.5 -59.5t-200.5 -14.5q-66 0 -109 2v258z" />
<glyph unicode="~" horiz-adv-x="1366" d="M190 1255q114 273 302 273q69 0 231 -72q85 -37 110.5 -46t51.5 -9q46 0 81.5 30t73.5 101l140 -115q-62 -145 -135 -206.5t-185 -61.5q-41 0 -76.5 12t-150.5 64q-105 47 -154 47q-43 0 -77 -30t-72 -101z" />
<glyph unicode="&#xa1;" horiz-adv-x="587" d="M143 827q0 64 43.5 107t108.5 43q66 0 108.5 -43t42.5 -109t-43 -108.5t-110 -42.5q-65 0 -107.5 43t-42.5 110zM166 -416v940h256v-940h-256z" />
<glyph unicode="&#xa2;" d="M100 655q0 142 55.5 256t155.5 179q50 31 99.5 47t128.5 26v150h96v-150q175 -14 317 -151l-168 -152q-35 37 -68.5 55t-80.5 25v-557q77 5 149 68l154 -158q-121 -116 -303 -133v-199h-96v199q-79 12 -130.5 30.5t-105.5 53.5q-104 70 -153.5 170.5t-49.5 240.5z M348 664q0 -225 191 -281v557q-191 -55 -191 -276z" />
<glyph unicode="&#xa3;" d="M63 0q1 138 79.5 232t191.5 96q5 8 31 47q34 57 34 98q0 89 -84 162h-235v125h135q-51 64 -69.5 114t-18.5 119q0 167 117 277t297 110q100 0 189.5 -40t150.5 -113q35 -40 50.5 -90t18.5 -133h-235q-3 80 -47.5 128t-116.5 48q-68 0 -116 -48.5t-48 -117.5 q0 -60 27 -110.5t110 -143.5h279v-125h-213q28 -50 37.5 -77.5t9.5 -59.5q0 -46 -21 -89t-77 -112l14 -4l47 -19q2 -1 59 -26q63 -32 93.5 -42.5t64.5 -10.5t60 13.5t59 49.5l27 -174q-92 -102 -209 -102q-50 0 -98 18.5t-158 79.5q-77 43 -125 43q-47 0 -76.5 -33 t-30.5 -90h-203z" />
<glyph unicode="&#xa4;" horiz-adv-x="1452" d="M96 1178l148 147l209 -209q90 48 146.5 65t127.5 17q70 0 123 -16t145 -64l209 205l146 -145l-203 -203q88 -142 88 -281q0 -67 -18 -124.5t-64 -143.5l203 -203l-146 -147l-200 203q-139 -89 -273 -89t-293 89l-200 -201l-146 145l201 203q-82 127 -82 272 q0 68 19.5 129.5t68.5 145.5zM465 698q0 -107 77.5 -184.5t184.5 -77.5q109 0 185.5 76.5t76.5 185.5q0 107 -76 185t-182 78q-112 0 -189 -76.5t-77 -186.5z" />
<glyph unicode="&#xa5;" d="M18 1358h279l221 -518l217 518h269l-213 -451h172v-135h-236l-80 -174v-14h275v-135h-275v-449h-264v449h-283v135h283v14l-82 174h-242v135h177z" />
<glyph unicode="&#xa6;" d="M371 313h284v-655h-284v655zM371 651v715h284v-715h-284z" />
<glyph unicode="&#xa7;" d="M86 494q0 125 61 210t175 117q-175 81 -175 264q0 137 100.5 223.5t260.5 86.5q110 0 201 -41.5t137 -112.5q44 -69 49 -182h-225q-6 70 -47 109.5t-107 39.5q-61 0 -103 -37.5t-42 -93.5q0 -57 49 -100q29 -23 60.5 -38t119.5 -48q183 -70 260.5 -156t77.5 -217 q0 -221 -219 -325q85 -49 124.5 -113t39.5 -150q0 -150 -107.5 -246t-275.5 -96q-108 0 -194.5 41.5t-139.5 118.5q-31 46 -44 91t-16 116h228q1 -83 48 -132.5t124 -49.5q66 0 109.5 43t43.5 108q0 75 -63 117q-28 20 -56.5 32.5t-115.5 39.5q-180 59 -259 147.5t-79 233.5 zM305 502q0 -85 58.5 -141t146.5 -56t146.5 56t58.5 141q0 78 -60 136t-143 58q-86 0 -146.5 -56t-60.5 -138z" />
<glyph unicode="&#xa8;" d="M156 1241q0 59 39.5 98t99.5 39q58 0 96.5 -39.5t38.5 -99.5q0 -57 -40 -96t-97 -39q-59 0 -98 39t-39 98zM592 1241q0 59 39.5 98t99.5 39q57 0 96 -39.5t39 -99.5q0 -57 -40 -96t-97 -39q-59 0 -98 39t-39 98z" />
<glyph unicode="&#xa9;" horiz-adv-x="1581" d="M82 682q0 196 95 359t260.5 257.5t363.5 94.5q187 0 347.5 -96t254.5 -260t94 -355q0 -115 -35.5 -223.5t-101 -195.5t-152.5 -152.5t-194.5 -101.5t-222.5 -36q-191 0 -354.5 95t-259 258.5t-95.5 355.5zM215 682q0 -158 77.5 -293t210 -214t288.5 -79t288 78.5 t208.5 213.5t76.5 294q0 119 -45 227.5t-121 187.5t-180.5 126t-218.5 47q-121 0 -229.5 -46t-186 -124t-123 -187t-45.5 -231zM403 688q0 183 110.5 298.5t285.5 115.5q142 0 241.5 -82.5t110.5 -208.5h-131q-17 69 -75 107t-144 38q-104 0 -166 -73t-62 -197 q0 -123 61 -194.5t165 -71.5q95 0 156 49t73 137h131q-12 -152 -111.5 -242t-254.5 -90q-175 0 -282.5 114t-107.5 300z" />
<glyph unicode="&#xaa;" horiz-adv-x="806" d="M51 825q0 135 86 223.5t217 88.5q112 0 185 -76v57h178v-571h-178v61q-74 -80 -197 -80q-126 0 -208.5 84t-82.5 213zM240 827q0 -69 42 -115t105 -46t108.5 49.5t45.5 118.5q0 70 -43 114.5t-109 44.5t-107.5 -46t-41.5 -120z" />
<glyph unicode="&#xab;" horiz-adv-x="866" d="M76 487l194 347h170l-196 -347l196 -333h-170zM414 487l194 347h170l-196 -347l196 -333h-170z" />
<glyph unicode="&#xac;" d="M68 342v248h886v-590h-274v342h-612z" />
<glyph unicode="&#xad;" horiz-adv-x="454" d="M0 385v229h455v-229h-455z" />
<glyph unicode="&#xae;" horiz-adv-x="1581" d="M82 682q0 196 95 359t260.5 257.5t363.5 94.5q187 0 347.5 -96t254.5 -260t94 -355q0 -115 -35.5 -223.5t-101 -195.5t-152.5 -152.5t-194.5 -101.5t-222.5 -36t-223.5 36t-195.5 101.5t-152.5 152.5t-101.5 195.5t-36 223.5zM215 682q0 -158 77.5 -293t210 -214 t288.5 -79q155 0 287 78.5t209 213.5t77 294q0 119 -45 227.5t-121 187.5t-180.5 126t-218.5 47q-121 0 -229.5 -46t-186 -124t-123 -187t-45.5 -231zM489 291v792h334q141 0 215 -57t74 -164q0 -137 -135 -194q71 -29 95.5 -80t27.5 -176q5 -87 20 -121h-162 q-13 30 -20 155q-8 108 -51 140q-38 30 -117 30h-113v-325h-168zM657 717h127q160 0 160 133q0 66 -36 97.5t-111 31.5h-140v-262z" />
<glyph unicode="&#xaf;" d="M326 1176v114h372v-114h-372z" />
<glyph unicode="&#xb0;" d="M197 1057q0 131 92.5 223t224.5 92q131 0 222 -93t91 -226q0 -128 -92 -220t-221 -92q-132 0 -224.5 92.5t-92.5 223.5zM311 1057q0 -85 59 -145t142 -60q82 0 141.5 59.5t59.5 141.5q0 88 -59 148.5t-144 60.5q-82 0 -140.5 -61t-58.5 -144z" />
<glyph unicode="&#xb1;" d="M25 59v136h972v-136h-972zM25 672v135h415v405h140v-405h417v-135h-417v-393h-140v393h-415z" />
<glyph unicode="&#xb2;" horiz-adv-x="675" d="M39 543l307 440q47 68 62.5 98t15.5 56q0 37 -26.5 60.5t-67.5 23.5q-54 0 -78 -31.5t-25 -104.5h-166v19q0 123 76 197.5t203 74.5q116 0 190 -62.5t74 -160.5q0 -58 -24 -115.5t-82 -134.5l-152 -209h236v-151h-543z" />
<glyph unicode="&#xb3;" horiz-adv-x="675" d="M41 776l162 6q8 -47 37 -73.5t75 -26.5q53 0 89 34t36 83q0 51 -35 83.5t-90 32.5q-42 0 -79 -22l-103 80l191 239h-240v148h543l-238 -303q100 -9 161.5 -78t61.5 -170q0 -122 -83 -201.5t-210 -79.5q-121 0 -192.5 64t-85.5 184z" />
<glyph unicode="&#xb4;" d="M391 1092l170 284h262l-272 -284h-160z" />
<glyph unicode="&#xb5;" d="M70 -346v1329h239v-522q0 -82 8 -121t33 -74q64 -86 158 -86q95 0 150 78.5t55 212.5v512h239v-983h-239v147q-65 -167 -209 -167q-65 0 -111 29.5t-84 96.5v-452h-239z" />
<glyph unicode="&#xb6;" d="M61 997q0 100 45 185t123 129q88 55 250 55h410v-1581h-135v1493h-164v-1493h-137v848h-31q-161 2 -261 102.5t-100 261.5z" />
<glyph unicode="&#xb7;" horiz-adv-x="534" d="M117 506q0 66 43 108.5t110 42.5q65 0 107.5 -43t42.5 -110q0 -64 -43.5 -107t-108.5 -43q-66 0 -108.5 43t-42.5 109z" />
<glyph unicode="&#xb8;" d="M326 -332q65 32 111 83t83 130l180 -76q-50 -77 -113.5 -131t-156.5 -98z" />
<glyph unicode="&#xb9;" horiz-adv-x="675" d="M156 1061v160l336 163v-841h-181v596z" />
<glyph unicode="&#xba;" horiz-adv-x="757" d="M51 834q0 135 92 220t238 85q141 0 233.5 -88t92.5 -222q0 -126 -96 -213.5t-234 -87.5q-141 0 -233.5 86.5t-92.5 219.5zM229 834q0 -69 41.5 -111.5t108.5 -42.5q65 0 106 42t41 109q0 72 -39.5 114t-107.5 42t-109 -42t-41 -111z" />
<glyph unicode="&#xbb;" horiz-adv-x="866" d="M88 158l197 346l-197 334h170l195 -334l-195 -346h-170zM426 158l197 346l-197 334h170l195 -334l-195 -346h-170z" />
<glyph unicode="&#xbc;" horiz-adv-x="1611" d="M156 1061v160l336 163v-841h-181v596zM315 27l899 1359l82 -51l-901 -1362zM991 166v137l305 512h183v-502h77v-147h-77v-166h-174v166h-314zM1141 307h174v301z" />
<glyph unicode="&#xbd;" horiz-adv-x="1611" d="M156 1061v160l336 163v-841h-181v596zM315 27l899 1359l82 -51l-901 -1362zM973 0l307 440q49 68 63.5 97t14.5 57q0 37 -26.5 59.5t-67.5 22.5q-54 0 -78 -30t-25 -103h-166v16q0 124 75.5 198t203.5 74q116 0 190 -62t74 -159q0 -58 -24 -115.5t-82 -134.5l-152 -208 h236v-152h-543z" />
<glyph unicode="&#xbe;" horiz-adv-x="1611" d="M41 776l162 6q8 -47 37 -73.5t75 -26.5q53 0 89 34t36 83q0 51 -35 83.5t-90 32.5q-42 0 -79 -22l-103 80l191 239h-240v148h543l-238 -303q100 -9 161.5 -78t61.5 -170q0 -122 -83 -201.5t-210 -79.5q-121 0 -192.5 64t-85.5 184zM315 27l899 1359l82 -51l-901 -1362z M991 166v137l305 512h183v-502h77v-147h-77v-166h-174v166h-314zM1141 307h174v301z" />
<glyph unicode="&#xbf;" horiz-adv-x="915" d="M78 -72q0 100 42.5 175t139.5 147q79 57 98 87t19 97v23q-2 8 -2 47h262q2 -33 2 -74q0 -123 -32 -181t-154 -153q-63 -50 -87 -85.5t-24 -80.5q0 -60 38.5 -97.5t100.5 -37.5q66 0 103 41t37 115h243q-4 -184 -106.5 -286.5t-282.5 -102.5q-175 0 -286 102.5t-111 263.5 zM352 827q0 64 43.5 107t108.5 43q66 0 108.5 -43t42.5 -109t-43 -108.5t-110 -42.5q-65 0 -107.5 43t-42.5 110z" />
<glyph unicode="&#xc0;" horiz-adv-x="1294" d="M4 0l471 1366h350l467 -1366h-307l-78 236h-524l-82 -236h-297zM322 1759h270l192 -272h-178zM455 465h379l-189 565z" />
<glyph unicode="&#xc1;" horiz-adv-x="1294" d="M4 0l471 1366h350l467 -1366h-307l-78 236h-524l-82 -236h-297zM455 465h379l-189 565zM514 1487l193 272h268l-283 -272h-178z" />
<glyph unicode="&#xc2;" horiz-adv-x="1294" d="M4 0l471 1366h350l467 -1366h-307l-78 236h-524l-82 -236h-297zM305 1487l232 274h237l217 -274h-182l-158 139l-164 -139h-182zM455 465h379l-189 565z" />
<glyph unicode="&#xc3;" horiz-adv-x="1294" d="M4 0l471 1366h350l467 -1366h-307l-78 236h-524l-82 -236h-297zM305 1509q15 70 33.5 108t52.5 71q58 55 131 55q29 0 66 -12t139 -54q27 -10 43 -10q52 0 78 78l170 -14q-62 -232 -219 -232q-27 0 -53.5 7t-96.5 32q-85 33 -106 33q-54 0 -66 -72zM455 465h379l-189 565 z" />
<glyph unicode="&#xc4;" horiz-adv-x="1294" d="M4 0l471 1366h350l467 -1366h-307l-78 236h-524l-82 -236h-297zM287 1640q0 60 41 101t100 41q60 0 100.5 -42t40.5 -102q0 -57 -41.5 -98t-99.5 -41t-99.5 41.5t-41.5 99.5zM455 465h379l-189 565zM723 1640q0 60 41 101t100 41q60 0 101 -42t41 -102q0 -57 -42 -98 t-100 -41t-99.5 41.5t-41.5 99.5z" />
<glyph unicode="&#xc5;" horiz-adv-x="1294" d="M4 0l471 1366h350l467 -1366h-307l-78 236h-524l-82 -236h-297zM455 465h379l-189 565zM459 1634q0 78 55.5 132.5t134.5 54.5q80 0 134.5 -55t54.5 -136q0 -75 -55.5 -128.5t-133.5 -53.5q-80 0 -135 54t-55 132zM555 1634q0 -38 27 -65t67 -27q37 0 64.5 26.5 t27.5 63.5q0 40 -27 67t-65 27q-40 0 -67 -27t-27 -65z" />
<glyph unicode="&#xc6;" horiz-adv-x="1740" d="M-12 0l741 1366h920v-229h-467v-336h467v-230h-467v-342h467v-229h-748v274h-469l-145 -274h-299zM549 496h352v657z" />
<glyph unicode="&#xc7;" horiz-adv-x="1300" d="M76 680q0 163 61.5 309t171.5 244q177 160 445 160q159 0 277 -49.5t239 -167.5l-183 -185q-84 75 -158.5 108.5t-160.5 33.5q-180 0 -294 -125t-114 -322t119 -325t303 -128q182 0 305 140l170 -193q-119 -110 -237 -158.5t-270 -48.5q-303 0 -490 205 q-88 96 -136 228.5t-48 273.5zM449 -338q171 80 200 217l248 -72q-96 -161 -324 -239z" />
<glyph unicode="&#xc8;" horiz-adv-x="948" d="M96 0v1366h760v-229h-479v-336h479v-230h-479v-342h479v-229h-760zM147 1759h271l192 -272h-178z" />
<glyph unicode="&#xc9;" horiz-adv-x="948" d="M96 0v1366h760v-229h-479v-336h479v-230h-479v-342h479v-229h-760zM340 1487l192 272h269l-283 -272h-178z" />
<glyph unicode="&#xca;" horiz-adv-x="948" d="M96 0v1366h760v-229h-479v-336h479v-230h-479v-342h479v-229h-760zM133 1487l232 274h235l217 -274h-182l-158 139l-162 -139h-182z" />
<glyph unicode="&#xcb;" horiz-adv-x="948" d="M96 0v1366h760v-229h-479v-336h479v-230h-479v-342h479v-229h-760zM115 1640q0 59 41.5 100.5t101.5 41.5q58 0 98.5 -42t40.5 -102q0 -57 -41.5 -98t-99.5 -41t-99.5 41.5t-41.5 99.5zM549 1640q0 59 41.5 100.5t101.5 41.5q58 0 98.5 -42t40.5 -102q0 -57 -41.5 -98 t-99.5 -41t-99.5 41.5t-41.5 99.5z" />
<glyph unicode="&#xcc;" horiz-adv-x="565" d="M-43 1759h268l193 -272h-178zM143 0v1366h281v-1366h-281z" />
<glyph unicode="&#xcd;" horiz-adv-x="565" d="M143 0v1366h281v-1366h-281zM147 1487l195 272h268l-284 -272h-179z" />
<glyph unicode="&#xce;" horiz-adv-x="565" d="M-59 1487l231 274h236l217 -274h-181l-159 139l-162 -139h-182zM143 0v1366h281v-1366h-281z" />
<glyph unicode="&#xcf;" horiz-adv-x="565" d="M-41 1640q0 59 41.5 100.5t101.5 41.5q58 0 99 -42t41 -102q0 -57 -42 -98t-100 -41t-99.5 41.5t-41.5 99.5zM143 0v1366h281v-1366h-281zM319 1640q0 59 42 100.5t102 41.5q58 0 98.5 -42t40.5 -102q0 -57 -41.5 -98t-99.5 -41q-59 0 -100.5 41.5t-41.5 99.5z" />
<glyph unicode="&#xd0;" horiz-adv-x="1312" d="M10 582v219h133v565h387q166 0 283.5 -36.5t208.5 -115.5q105 -93 160 -225t55 -291q0 -165 -56.5 -305.5t-160.5 -234.5q-175 -158 -473 -158h-404v582h-133zM424 231h53q113 0 187.5 22t134.5 73q74 63 113.5 157t39.5 207q0 204 -116 326.5t-310 122.5h-102v-338h242 v-219h-242v-351z" />
<glyph unicode="&#xd1;" horiz-adv-x="1413" d="M143 0v1366h277l571 -852v852h281v-1366h-275l-573 864v-864h-281zM365 1509q15 70 33.5 108t52.5 71q58 55 131 55q29 0 65 -11.5t139 -54.5q27 -10 43 -10q52 0 76 78l172 -14q-62 -232 -219 -232q-27 0 -52.5 7t-96.5 32q-85 33 -109 33q-51 0 -63 -72z" />
<glyph unicode="&#xd2;" horiz-adv-x="1564" d="M76 676q0 200 94 364.5t258.5 258.5t364.5 94q150 0 284 -59.5t236 -170.5q174 -195 174 -487q0 -191 -93.5 -353t-254.5 -256t-351 -94q-147 0 -279 55t-227 148.5t-150.5 224t-55.5 275.5zM362 680q0 -191 121 -320t299 -129q177 0 298.5 128.5t121.5 314.5 q0 198 -118.5 328.5t-299.5 130.5q-182 0 -302 -129t-120 -324zM455 1759h270l193 -272h-179z" />
<glyph unicode="&#xd3;" horiz-adv-x="1564" d="M76 676q0 200 94 364.5t258.5 258.5t364.5 94q150 0 284 -59.5t236 -170.5q174 -195 174 -487q0 -191 -93.5 -353t-254.5 -256t-351 -94q-147 0 -279 55t-227 148.5t-150.5 224t-55.5 275.5zM362 680q0 -191 121 -320t299 -129q177 0 298.5 128.5t121.5 314.5 q0 198 -118.5 328.5t-299.5 130.5q-182 0 -302 -129t-120 -324zM647 1487l193 272h268l-283 -272h-178z" />
<glyph unicode="&#xd4;" horiz-adv-x="1564" d="M76 676q0 200 94 364.5t258.5 258.5t364.5 94q150 0 284 -59.5t236 -170.5q174 -195 174 -487q0 -191 -93.5 -353t-254.5 -256t-351 -94q-147 0 -279 55t-227 148.5t-150.5 224t-55.5 275.5zM362 680q0 -191 121 -320t299 -129q177 0 298.5 128.5t121.5 314.5 q0 198 -118.5 328.5t-299.5 130.5q-182 0 -302 -129t-120 -324zM438 1487l232 274h237l217 -274h-182l-158 139l-161 -139h-185z" />
<glyph unicode="&#xd5;" horiz-adv-x="1564" d="M76 676q0 200 94 364.5t258.5 258.5t364.5 94q150 0 284 -59.5t236 -170.5q174 -195 174 -487q0 -191 -93.5 -353t-254.5 -256t-351 -94q-147 0 -279 55t-227 148.5t-150.5 224t-55.5 275.5zM362 680q0 -191 121 -320t299 -129q177 0 298.5 128.5t121.5 314.5 q0 198 -118.5 328.5t-299.5 130.5q-182 0 -302 -129t-120 -324zM438 1509q15 70 34 108.5t54 70.5q55 55 129 55q29 0 66 -12t139 -54q27 -10 43 -10q52 0 78 78l170 -14q-62 -232 -217 -232q-29 0 -55 7t-95 32q-88 33 -108 33q-54 0 -66 -72z" />
<glyph unicode="&#xd6;" horiz-adv-x="1564" d="M76 676q0 200 94 364.5t258.5 258.5t364.5 94q150 0 284 -59.5t236 -170.5q174 -195 174 -487q0 -191 -93.5 -353t-254.5 -256t-351 -94q-147 0 -279 55t-227 148.5t-150.5 224t-55.5 275.5zM362 680q0 -191 121 -320t299 -129q177 0 298.5 128.5t121.5 314.5 q0 198 -118.5 328.5t-299.5 130.5q-182 0 -302 -129t-120 -324zM420 1640q0 59 41.5 100.5t101.5 41.5q58 0 98.5 -42t40.5 -102q0 -57 -41.5 -98t-99.5 -41q-59 0 -100 41.5t-41 99.5zM856 1640q0 59 41.5 100.5t101.5 41.5q58 0 99 -42t41 -102q0 -57 -42 -98t-100 -41 q-59 0 -100 41.5t-41 99.5z" />
<glyph unicode="&#xd7;" d="M104 418l314 311l-309 307l94 97l309 -310l309 312l101 -99l-314 -311l312 -307l-97 -96l-309 311l-311 -314z" />
<glyph unicode="&#xd8;" horiz-adv-x="1560" d="M74 670q0 205 91 370.5t251 259t358 93.5q137 0 259.5 -47t217.5 -136l148 144l69 -76l-143 -139q86 -123 122 -227t36 -230q0 -197 -94.5 -359.5t-259.5 -256t-365 -93.5q-263 0 -459 181l-147 -140l-68 74l143 139q-87 109 -123 210.5t-36 232.5zM358 682 q0 -154 76 -264l617 606q-120 111 -269 111q-181 0 -302.5 -129.5t-121.5 -323.5zM500 338q120 -105 270 -105q183 0 305.5 129.5t122.5 321.5q0 77 -18 137.5t-60 124.5z" />
<glyph unicode="&#xd9;" horiz-adv-x="1308" d="M121 575v791h280v-801q0 -96 14 -153t48 -97q31 -38 82 -61t108 -23q60 0 114 26t85 69q30 41 41.5 93t11.5 148v799h283v-791q0 -292 -135 -442q-69 -76 -172.5 -118t-223.5 -42q-125 0 -233 44.5t-180 125.5q-66 73 -94.5 173.5t-28.5 258.5zM328 1759h268l192 -272 h-178z" />
<glyph unicode="&#xda;" horiz-adv-x="1308" d="M121 575v791h280v-801q0 -96 14 -153t48 -97q31 -38 82 -61t108 -23q60 0 114 26t85 69q30 41 41.5 93t11.5 148v799h283v-791q0 -292 -135 -442q-69 -76 -172.5 -118t-223.5 -42q-125 0 -233 44.5t-180 125.5q-66 73 -94.5 173.5t-28.5 258.5zM518 1487l193 272h270 l-285 -272h-178z" />
<glyph unicode="&#xdb;" horiz-adv-x="1308" d="M121 575v791h280v-801q0 -96 14 -153t48 -97q31 -38 82 -61t108 -23q60 0 114 26t85 69q30 41 41.5 93t11.5 148v799h283v-791q0 -292 -135 -442q-69 -76 -172.5 -118t-223.5 -42q-125 0 -233 44.5t-180 125.5q-66 73 -94.5 173.5t-28.5 258.5zM311 1487l232 274h237 l217 -274h-182l-158 139l-163 -139h-183z" />
<glyph unicode="&#xdc;" horiz-adv-x="1308" d="M121 575v791h280v-801q0 -96 14 -153t48 -97q31 -38 82 -61t108 -23q60 0 114 26t85 69q30 41 41.5 93t11.5 148v799h283v-791q0 -292 -135 -442q-69 -76 -172.5 -118t-223.5 -42q-125 0 -233 44.5t-180 125.5q-66 73 -94.5 173.5t-28.5 258.5zM293 1640q0 60 41.5 101 t101.5 41q58 0 98.5 -42t40.5 -102q0 -57 -41.5 -98t-99.5 -41t-99.5 41.5t-41.5 99.5zM729 1640q0 59 41.5 100.5t101.5 41.5q58 0 99 -42t41 -102q0 -57 -42 -98t-100 -41t-99.5 41.5t-41.5 99.5z" />
<glyph unicode="&#xdd;" horiz-adv-x="1140" d="M-23 1366h334l264 -473l261 473h327l-448 -764v-602h-281v602zM436 1487l193 272h268l-283 -272h-178z" />
<glyph unicode="&#xde;" horiz-adv-x="1136" d="M139 0v1366h281v-149h155q243 0 374.5 -114t131.5 -323q0 -212 -130.5 -335t-356.5 -123h-174v-322h-281zM420 553h121q122 0 189 56t67 159q0 100 -67.5 158.5t-182.5 58.5h-127v-432z" />
<glyph unicode="&#xdf;" horiz-adv-x="1089" d="M53 729v219h92v105q0 149 107.5 240t282.5 91q180 0 290.5 -89t110.5 -234q0 -186 -172 -262q123 -38 190.5 -136.5t67.5 -240.5q0 -187 -96 -316q-92 -124 -277 -124q-94 0 -172 36l45 215q37 -12 68 -12q82 0 130 57t48 152q0 121 -84 176q-28 19 -58 28t-85 13v238 q64 5 90 26q51 38 51 109q0 58 -39 97.5t-98 39.5q-76 0 -117 -57q-13 -22 -17.5 -46t-4.5 -77v-977h-261v729h-92z" />
<glyph unicode="&#xe0;" horiz-adv-x="1243" d="M70 463q0 224 135 371t342 147q96 0 168 -36t141 -118v121h260v-948h-260v131q-66 -85 -146 -124.5t-184 -39.5q-199 0 -327.5 139.5t-128.5 356.5zM311 1376h262l170 -284h-159zM348 467q0 -124 72 -207.5t178 -83.5q109 0 185.5 88t76.5 211q0 126 -72.5 206.5 t-187.5 80.5q-111 0 -181.5 -82.5t-70.5 -212.5z" />
<glyph unicode="&#xe1;" horiz-adv-x="1243" d="M70 463q0 224 135 371t342 147q96 0 168 -36t141 -118v121h260v-948h-260v131q-66 -85 -146 -124.5t-184 -39.5q-199 0 -327.5 139.5t-128.5 356.5zM348 467q0 -124 72 -207.5t178 -83.5q109 0 185.5 88t76.5 211q0 126 -72.5 206.5t-187.5 80.5q-111 0 -181.5 -82.5 t-70.5 -212.5zM502 1092l170 284h262l-270 -284h-162z" />
<glyph unicode="&#xe2;" horiz-adv-x="1243" d="M70 463q0 224 135 371t342 147q96 0 168 -36t141 -118v121h260v-948h-260v131q-66 -85 -146 -124.5t-184 -39.5q-199 0 -327.5 139.5t-128.5 356.5zM299 1092l209 284h242l196 -284h-182l-139 151l-144 -151h-182zM348 467q0 -124 72 -207.5t178 -83.5q109 0 185.5 88 t76.5 211q0 126 -72.5 206.5t-187.5 80.5q-111 0 -181.5 -82.5t-70.5 -212.5z" />
<glyph unicode="&#xe3;" horiz-adv-x="1243" d="M70 463q0 224 135 371t342 147q96 0 168 -36t141 -118v121h260v-948h-260v131q-66 -85 -146 -124.5t-184 -39.5q-199 0 -327.5 139.5t-128.5 356.5zM301 1122q52 228 213 228q58 0 186 -60q28 -14 48 -14q45 0 57 72l168 -13q-56 -229 -213 -229q-56 0 -182 59 q-33 17 -48 17q-44 0 -61 -74zM348 467q0 -124 72 -207.5t178 -83.5q109 0 185.5 88t76.5 211q0 126 -72.5 206.5t-187.5 80.5q-111 0 -181.5 -82.5t-70.5 -212.5z" />
<glyph unicode="&#xe4;" horiz-adv-x="1243" d="M70 463q0 224 135 371t342 147q96 0 168 -36t141 -118v121h260v-948h-260v131q-66 -85 -146 -124.5t-184 -39.5q-199 0 -327.5 139.5t-128.5 356.5zM299 1241q0 59 39.5 98t97.5 39q59 0 98 -39.5t39 -99.5q0 -57 -40 -96t-97 -39q-58 0 -97.5 39t-39.5 98zM348 467 q0 -124 72 -207.5t178 -83.5q109 0 185.5 88t76.5 211q0 126 -72.5 206.5t-187.5 80.5q-111 0 -181.5 -82.5t-70.5 -212.5zM735 1241q0 59 39.5 98t97.5 39q59 0 98.5 -39.5t39.5 -99.5q0 -57 -40.5 -96t-97.5 -39q-58 0 -97.5 39t-39.5 98z" />
<glyph unicode="&#xe5;" horiz-adv-x="1243" d="M70 463q0 224 135 371t342 147q96 0 168 -36t141 -118v121h260v-948h-260v131q-66 -85 -146 -124.5t-184 -39.5q-199 0 -327.5 139.5t-128.5 356.5zM348 467q0 -124 72 -207.5t178 -83.5q109 0 185.5 88t76.5 211q0 126 -72.5 206.5t-187.5 80.5q-111 0 -181.5 -82.5 t-70.5 -212.5zM420 1241q0 78 55 132t135 54t134.5 -54.5t54.5 -135.5q0 -75 -55.5 -128.5t-133.5 -53.5q-80 0 -135 54t-55 132zM516 1241q0 -38 27 -65t67 -27q37 0 64.5 26.5t27.5 63.5q0 40 -27 67t-65 27q-40 0 -67 -27t-27 -65z" />
<glyph unicode="&#xe6;" horiz-adv-x="1935" d="M68 465q0 223 133.5 369.5t335.5 146.5q208 0 340 -141v108h249v-108q60 77 125 109t160 32q198 0 332.5 -146.5t134.5 -363.5q0 -34 -2 -61h-750q20 -98 89.5 -154.5t170.5 -56.5q70 0 122.5 29.5t99.5 95.5l235 -72q-74 -140 -183 -212.5t-247 -72.5q-98 0 -164 33.5 t-123 110.5v-111h-249v117q-63 -78 -142.5 -114t-187.5 -36q-215 0 -347 137t-132 361zM344 473q0 -123 78 -209t192 -86q110 0 184 81.5t74 203.5q0 132 -73 215.5t-189 83.5q-115 0 -190.5 -82t-75.5 -207zM1126 559h484q-41 203 -236 203q-97 0 -157 -49.5t-91 -153.5z " />
<glyph unicode="&#xe7;" horiz-adv-x="958" d="M68 469q0 224 141 368t362 144q204 0 379 -158l-174 -157q-87 84 -196 84q-107 0 -178.5 -78t-71.5 -195q0 -120 74 -199t186 -79q52 0 93.5 18t92.5 62l158 -170q-158 -142 -365 -142q-217 0 -359 142.5t-142 359.5zM322 -332q65 32 111 83t83 130l180 -76 q-50 -77 -113.5 -131t-156.5 -98z" />
<glyph unicode="&#xe8;" horiz-adv-x="1138" d="M68 475q0 223 139.5 364.5t359.5 141.5q227 0 370.5 -144.5t143.5 -373.5l-2 -51h-741q17 -98 84 -155.5t164 -57.5q72 0 130 33t89 90l239 -66q-71 -138 -190.5 -213.5t-269.5 -75.5q-226 0 -371 143.5t-145 364.5zM258 1376h262l170 -284h-160zM338 561h475 q-17 94 -81.5 147.5t-160.5 53.5q-94 0 -154 -52t-79 -149z" />
<glyph unicode="&#xe9;" horiz-adv-x="1138" d="M68 475q0 223 139.5 364.5t359.5 141.5q227 0 370.5 -144.5t143.5 -373.5l-2 -51h-741q17 -98 84 -155.5t164 -57.5q72 0 130 33t89 90l239 -66q-71 -138 -190.5 -213.5t-269.5 -75.5q-226 0 -371 143.5t-145 364.5zM338 561h475q-17 94 -81.5 147.5t-160.5 53.5 q-94 0 -154 -52t-79 -149zM451 1092l170 284h260l-271 -284h-159z" />
<glyph unicode="&#xea;" horiz-adv-x="1138" d="M68 475q0 223 139.5 364.5t359.5 141.5q227 0 370.5 -144.5t143.5 -373.5l-2 -51h-741q17 -98 84 -155.5t164 -57.5q72 0 130 33t89 90l239 -66q-71 -138 -190.5 -213.5t-269.5 -75.5q-226 0 -371 143.5t-145 364.5zM246 1092l209 284h241l197 -284h-182l-140 151 l-143 -151h-182zM338 561h475q-17 94 -81.5 147.5t-160.5 53.5q-94 0 -154 -52t-79 -149z" />
<glyph unicode="&#xeb;" horiz-adv-x="1138" d="M68 475q0 223 139.5 364.5t359.5 141.5q227 0 370.5 -144.5t143.5 -373.5l-2 -51h-741q17 -98 84 -155.5t164 -57.5q72 0 130 33t89 90l239 -66q-71 -138 -190.5 -213.5t-269.5 -75.5q-226 0 -371 143.5t-145 364.5zM213 1241q0 59 39.5 98t99.5 39q58 0 96.5 -39.5 t38.5 -99.5q0 -57 -40 -96t-97 -39q-58 0 -97.5 39t-39.5 98zM338 561h475q-17 94 -81.5 147.5t-160.5 53.5q-94 0 -154 -52t-79 -149zM649 1241q0 59 39.5 98t99.5 39q57 0 96.5 -39.5t39.5 -99.5q0 -57 -40.5 -96t-97.5 -39q-58 0 -97.5 39t-39.5 98z" />
<glyph unicode="&#xec;" horiz-adv-x="518" d="M-51 1376h262l170 -284h-160zM129 0v948h260v-948h-260z" />
<glyph unicode="&#xed;" horiz-adv-x="518" d="M129 0v948h260v-948h-260zM139 1092l170 284h262l-272 -284h-160z" />
<glyph unicode="&#xee;" horiz-adv-x="518" d="M-63 1092l208 284h242l197 -284h-183l-139 151l-143 -151h-182zM129 0v948h260v-948h-260z" />
<glyph unicode="&#xef;" horiz-adv-x="518" d="M-59 1241q0 59 39.5 98t99.5 39q58 0 96.5 -39.5t38.5 -99.5q0 -57 -40 -96t-97 -39q-58 0 -97.5 39t-39.5 98zM129 0v948h260v-948h-260zM299 1241q0 59 39.5 98t99.5 39q57 0 96 -39.5t39 -99.5q0 -57 -40 -96t-97 -39q-58 0 -97.5 39t-39.5 98z" />
<glyph unicode="&#xf0;" horiz-adv-x="1165" d="M68 475q0 220 144 362t368 142q89 0 188 -35q-26 71 -61.5 125.5t-96.5 116.5l-198 -109l-56 105l156 84q-28 25 -100.5 63t-110.5 49l51 82q56 -10 144 -48t147 -77l213 115l59 -102l-157 -82q161 -127 251.5 -326t90.5 -424q0 -279 -166 -422q-146 -127 -352 -127 q-226 0 -370 142.5t-144 365.5zM332 475q0 -124 68.5 -200t181.5 -76q115 0 183.5 75t68.5 201q0 123 -68 196.5t-182 73.5t-183 -74t-69 -196z" />
<glyph unicode="&#xf1;" horiz-adv-x="1087" d="M129 0v948h260v-117q53 82 111 116t147 34q67 0 129 -23.5t105 -64.5q46 -46 65 -111.5t19 -181.5v-600h-260v588q0 71 -23 110q-19 29 -53 46.5t-72 17.5q-75 0 -121.5 -52t-46.5 -135v-575h-260zM221 1122q28 116 80.5 172t134.5 56q59 0 185 -60q28 -14 47 -14 q44 0 59 72l166 -13q-26 -113 -80 -171t-131 -58q-58 0 -184 59q-33 17 -47 17q-42 0 -62 -74z" />
<glyph unicode="&#xf2;" horiz-adv-x="1163" d="M68 473q0 226 144 367t374 141q224 0 369 -146t145 -370q0 -209 -150 -353.5t-368 -144.5q-224 0 -369 142.5t-145 363.5zM272 1376h263l170 -284h-162zM330 473q0 -123 70 -198.5t184 -75.5q112 0 183 75.5t71 194.5q0 129 -67.5 204t-184.5 75q-116 0 -186 -75.5 t-70 -199.5z" />
<glyph unicode="&#xf3;" horiz-adv-x="1163" d="M68 473q0 226 144 367t374 141q224 0 369 -146t145 -370q0 -209 -150 -353.5t-368 -144.5q-224 0 -369 142.5t-145 363.5zM330 473q0 -123 70 -198.5t184 -75.5q112 0 183 75.5t71 194.5q0 129 -67.5 204t-184.5 75q-116 0 -186 -75.5t-70 -199.5zM463 1092l170 284h262 l-272 -284h-160z" />
<glyph unicode="&#xf4;" horiz-adv-x="1163" d="M68 473q0 226 144 367t374 141q224 0 369 -146t145 -370q0 -209 -150 -353.5t-368 -144.5q-224 0 -369 142.5t-145 363.5zM260 1092l209 284h240l198 -284h-182l-141 151l-142 -151h-182zM330 473q0 -123 70 -198.5t184 -75.5q112 0 183 75.5t71 194.5q0 129 -67.5 204 t-184.5 75q-116 0 -186 -75.5t-70 -199.5z" />
<glyph unicode="&#xf5;" horiz-adv-x="1163" d="M68 473q0 226 144 367t374 141q224 0 369 -146t145 -370q0 -209 -150 -353.5t-368 -144.5q-224 0 -369 142.5t-145 363.5zM260 1122q28 116 80.5 172t134.5 56q58 0 184 -60q28 -14 48 -14q44 0 59 72l166 -13q-26 -113 -80 -171t-131 -58q-58 0 -184 59q-33 17 -48 17 q-41 0 -61 -74zM330 473q0 -123 70 -198.5t184 -75.5q112 0 183 75.5t71 194.5q0 129 -67.5 204t-184.5 75q-116 0 -186 -75.5t-70 -199.5z" />
<glyph unicode="&#xf6;" horiz-adv-x="1163" d="M68 473q0 226 144 367t374 141q224 0 369 -146t145 -370q0 -209 -150 -353.5t-368 -144.5q-224 0 -369 142.5t-145 363.5zM225 1241q0 59 39.5 98t97.5 39q59 0 98.5 -39.5t39.5 -99.5q0 -57 -40.5 -96t-97.5 -39q-58 0 -97.5 39t-39.5 98zM330 473q0 -123 70 -198.5 t184 -75.5q112 0 183 75.5t71 194.5q0 129 -67.5 204t-184.5 75q-116 0 -186 -75.5t-70 -199.5zM664 1241q0 59 39 98t98 39t98 -39.5t39 -99.5q0 -57 -40 -96t-97 -39q-59 0 -98 39t-39 98z" />
<glyph unicode="&#xf7;" d="M25 659v136h972v-136h-972zM403 367q0 45 32 76.5t77 31.5q43 0 74.5 -31.5t31.5 -74.5q0 -44 -32 -76.5t-76 -32.5q-43 0 -75 32t-32 75zM403 1085q0 46 31.5 77.5t77.5 31.5q44 0 75 -32t31 -75q0 -44 -31.5 -76t-74.5 -32q-44 0 -76.5 31.5t-32.5 74.5z" />
<glyph unicode="&#xf8;" horiz-adv-x="1165" d="M68 473q0 221 143 364.5t364 143.5q191 0 345 -113l112 109l62 -68l-109 -106q60 -82 87.5 -161.5t27.5 -172.5q0 -140 -67.5 -255.5t-186 -181t-262.5 -65.5q-193 0 -340 115l-109 -105l-65 68l106 105q-57 70 -82.5 147t-25.5 176zM322 469q0 -77 36 -145l383 374 q-73 50 -157 50q-118 0 -190 -76.5t-72 -202.5zM422 252q73 -53 164 -53q114 0 186 76.5t72 197.5q0 91 -41 158z" />
<glyph unicode="&#xf9;" horiz-adv-x="1052" d="M111 348v600h260v-583q0 -80 43.5 -129.5t113.5 -49.5q72 0 113 43.5t41 118.5v600h260v-600q0 -105 -24 -169t-82 -113q-119 -99 -308 -99q-203 0 -317 105q-100 90 -100 276zM215 1376h262l170 -284h-162z" />
<glyph unicode="&#xfa;" horiz-adv-x="1052" d="M111 348v600h260v-583q0 -80 43.5 -129.5t113.5 -49.5q72 0 113 43.5t41 118.5v600h260v-600q0 -105 -24 -169t-82 -113q-119 -99 -308 -99q-203 0 -317 105q-100 90 -100 276zM406 1092l169 284h263l-271 -284h-161z" />
<glyph unicode="&#xfb;" horiz-adv-x="1052" d="M111 348v600h260v-583q0 -80 43.5 -129.5t113.5 -49.5q72 0 113 43.5t41 118.5v600h260v-600q0 -105 -24 -169t-82 -113q-119 -99 -308 -99q-203 0 -317 105q-100 90 -100 276zM203 1092l209 284h241l197 -284h-182l-140 151l-143 -151h-182z" />
<glyph unicode="&#xfc;" horiz-adv-x="1052" d="M111 348v600h260v-583q0 -80 43.5 -129.5t113.5 -49.5q72 0 113 43.5t41 118.5v600h260v-600q0 -105 -24 -169t-82 -113q-116 -99 -308 -99q-203 0 -317 105q-100 90 -100 276zM170 1241q0 59 39 98t98 39t98 -39.5t39 -99.5q0 -57 -40 -96t-97 -39q-59 0 -98 39t-39 98z M606 1241q0 59 39.5 98t99.5 39q59 0 97.5 -39.5t38.5 -99.5q0 -57 -40.5 -96t-97.5 -39q-59 0 -98 39t-39 98z" />
<glyph unicode="&#xfd;" horiz-adv-x="960" d="M-4 948h276l193 -563l221 563h277l-535 -1380h-278l178 455zM358 1092l170 284h263l-271 -284h-162z" />
<glyph unicode="&#xfe;" horiz-adv-x="1245" d="M127 -424v1790h260v-535q59 78 132.5 114t178.5 36q147 0 265 -78q215 -147 215 -432q0 -227 -129.5 -365.5t-343.5 -138.5q-201 0 -318 135v-526h-260zM387 463q0 -129 69 -208t183 -79t187 81.5t73 207.5q0 130 -71 213.5t-181 83.5q-115 0 -187.5 -83.5t-72.5 -215.5z " />
<glyph unicode="&#xff;" horiz-adv-x="960" d="M-4 948h276l193 -563l221 563h277l-535 -1380h-278l178 455zM123 1241q0 59 39.5 98t99.5 39q58 0 96.5 -39.5t38.5 -99.5q0 -57 -40 -96t-97 -39q-58 0 -97.5 39t-39.5 98zM559 1241q0 59 39.5 98t99.5 39q57 0 96.5 -39.5t39.5 -99.5q0 -57 -40.5 -96t-97.5 -39 q-58 0 -97.5 39t-39.5 98z" />
<glyph unicode="&#x152;" horiz-adv-x="2052" d="M80 686q0 150 53 281.5t145 224.5t220.5 147t275.5 54q136 0 242.5 -43.5t200.5 -137.5v154h741v-229h-467v-336h467v-230h-467v-342h467v-229h-741v162q-40 -48 -71.5 -73t-82.5 -50q-141 -66 -295 -66q-193 0 -350.5 93t-247.5 256.5t-90 363.5zM365 680 q0 -192 121.5 -319.5t304.5 -127.5t308.5 130.5t125.5 320.5q0 195 -119 322t-303 127q-189 0 -313.5 -129t-124.5 -324z" />
<glyph unicode="&#x153;" horiz-adv-x="1857" d="M68 475q0 223 141.5 364.5t365.5 141.5q248 0 377 -170q138 170 379 170q153 0 273 -76t176 -207q27 -65 37 -126t12 -164h-735q5 -46 17 -75t38 -57q77 -77 190 -77q159 0 244 120l213 -71q-32 -62 -59.5 -96.5t-71.5 -69.5q-142 -115 -324 -115q-144 0 -272 72 q-36 20 -60.5 42.5t-56.5 63.5q-32 -42 -57 -63.5t-78 -50.5q-119 -64 -244 -64q-222 0 -363.5 142.5t-141.5 365.5zM330 479q0 -120 73.5 -200t182.5 -80q106 0 178 76t72 188q0 123 -71.5 205t-180.5 82t-181.5 -77t-72.5 -194zM1083 557h492q-19 99 -82 152t-164 53 q-97 0 -160 -52.5t-86 -152.5z" />
<glyph unicode="&#x178;" horiz-adv-x="1140" d="M-23 1366h334l264 -473l261 473h327l-448 -764v-602h-281v602zM209 1640q0 59 41.5 100.5t101.5 41.5q58 0 99 -42t41 -102q0 -57 -42 -98t-100 -41t-99.5 41.5t-41.5 99.5zM645 1640q0 59 41.5 100.5t101.5 41.5q58 0 99 -42t41 -102q0 -57 -42 -98t-100 -41t-99.5 41.5 t-41.5 99.5z" />
<glyph unicode="&#x2c6;" d="M188 1092l209 284h242l197 -284h-183l-139 151l-143 -151h-183z" />
<glyph unicode="&#x2dc;" d="M190 1122q52 228 213 228q59 0 187 -60q28 -14 47 -14q45 0 57 72l168 -13q-56 -229 -213 -229q-56 0 -182 59q-33 17 -47 17q-42 0 -62 -74z" />
<glyph unicode="&#x2000;" horiz-adv-x="910" />
<glyph unicode="&#x2001;" horiz-adv-x="1821" />
<glyph unicode="&#x2002;" horiz-adv-x="910" />
<glyph unicode="&#x2003;" horiz-adv-x="1821" />
<glyph unicode="&#x2004;" horiz-adv-x="607" />
<glyph unicode="&#x2005;" horiz-adv-x="455" />
<glyph unicode="&#x2006;" horiz-adv-x="303" />
<glyph unicode="&#x2007;" horiz-adv-x="303" />
<glyph unicode="&#x2008;" horiz-adv-x="227" />
<glyph unicode="&#x2009;" horiz-adv-x="364" />
<glyph unicode="&#x200a;" horiz-adv-x="101" />
<glyph unicode="&#x2010;" horiz-adv-x="454" d="M0 385v229h455v-229h-455z" />
<glyph unicode="&#x2011;" horiz-adv-x="454" d="M0 385v229h455v-229h-455z" />
<glyph unicode="&#x2012;" horiz-adv-x="454" d="M0 385v229h455v-229h-455z" />
<glyph unicode="&#x2013;" d="M96 379v219h834v-219h-834z" />
<glyph unicode="&#x2014;" horiz-adv-x="1370" d="M0 399v199h1370v-199h-1370z" />
<glyph unicode="&#x2018;" horiz-adv-x="483" d="M70 967l161 426l177 -45l-115 -441z" />
<glyph unicode="&#x2019;" horiz-adv-x="483" d="M78 954l115 439l223 -60l-162 -426z" />
<glyph unicode="&#x201a;" horiz-adv-x="497" d="M78 -193l119 472l233 -64l-170 -455z" />
<glyph unicode="&#x201c;" horiz-adv-x="888" d="M70 922l174 471l182 -47l-123 -488zM459 922l174 471l180 -47l-121 -488z" />
<glyph unicode="&#x201d;" horiz-adv-x="888" d="M76 905l123 488l233 -64l-174 -471zM463 905l123 488l233 -64l-174 -471z" />
<glyph unicode="&#x201e;" horiz-adv-x="888" d="M76 -209l123 488l233 -64l-174 -471zM463 -209l123 488l233 -64l-174 -471z" />
<glyph unicode="&#x2022;" horiz-adv-x="1366" d="M401 694q0 120 83.5 202.5t205.5 82.5q114 0 196.5 -83.5t82.5 -199.5q0 -118 -83 -201t-200 -83t-201 82.5t-84 199.5z" />
<glyph unicode="&#x2026;" horiz-adv-x="1601" d="M117 125q0 66 43 108.5t110 42.5q65 0 107.5 -43t42.5 -110q0 -64 -43.5 -107t-108.5 -43q-66 0 -108.5 43t-42.5 109zM651 125q0 66 43.5 108.5t110.5 42.5q65 0 107 -43t42 -110q0 -64 -43 -107t-108 -43q-66 0 -109 43t-43 109zM1184 125q0 66 43 108.5t110 42.5 q65 0 107.5 -43t42.5 -110q0 -64 -43.5 -107t-108.5 -43q-66 0 -108.5 43t-42.5 109z" />
<glyph unicode="&#x202f;" horiz-adv-x="364" />
<glyph unicode="&#x2039;" horiz-adv-x="528" d="M76 487l194 347h170l-196 -347l196 -333h-170z" />
<glyph unicode="&#x203a;" horiz-adv-x="528" d="M88 154l197 346l-197 334h170l195 -334l-195 -346h-170z" />
<glyph unicode="&#x205f;" horiz-adv-x="455" />
<glyph unicode="&#x20ac;" d="M0 549l86 262h64q37 262 181.5 422t344.5 160q195 0 344 -146l-115 -266q-45 73 -102 112.5t-119 39.5q-91 0 -157 -85.5t-91 -236.5h377l-86 -262h-287q29 -148 101.5 -233t167.5 -85q71 0 135 41.5t110 116.5v-340q-125 -76 -258 -76q-204 0 -356.5 161.5t-187.5 414.5 h-152z" />
<glyph unicode="&#x2122;" horiz-adv-x="1744" d="M16 1217v149h594v-149h-202v-670h-191v670h-201zM727 547v819h211l246 -479l248 479h210v-819h-190v475l-268 -510l-266 510v-475h-191z" />
<glyph unicode="&#x25fc;" horiz-adv-x="952" d="M0 0v952h952v-952h-952z" />
</font>
</defs>
</svg>
